Show Posts

This section allows you to view all posts made by this member. Note that you can only see posts made in areas you currently have access to.


Messages - elletek

Pages: [1] 2 3
1
Global Elements / GE 103 | Elemance, Gil La, Bax
« on: October 24, 2005, 11:48:12 pm »
I'm just wondering what happened to this show tonite?

2
Maneki Neko / Manuel Le Saux MANEKI NEKO SPECIAL EDITION, 5 July 2005
« on: July 12, 2005, 09:57:36 am »
try using a dvd

3
Maneki Neko / Manuel Le Saux MANEKI NEKO SPECIAL EDITION, 5 July 2005
« on: July 08, 2005, 04:51:58 pm »
01 - Rio Klein - Fearless (Push Remix)
02 - Andy Hunter - Go (Antillas Rmx)
03 - Factoria - A Legends Legacy
04 - Dj Danjo & Rob Styles - Duende (Signum Rmx)
05 - Nu NRG - Connective
06 - Apogee - Illusion (Marcos Rmx)
07 - Timeok - Seven Floating Ways (Octagen Rmx)
08 - Solarstone Pres. Elizabeth Fields - Speak In Sympathy (Neo And Farina Rmx)
09 - 8 Wonders - The Morning After (Thrillseekers Rmx)
10 - Paul Van Dyk - Connected (Motomix 05)
11 - Mac Zimms - Lannonce Des Couleurs (The Mystery Rmx)
12 - Signum - First Strike (Signum Signal 2004 Remake)
13 - Ryan G - Emoticon (Octagen Rmx)
14 - Sasha - Wavy Gravy (Terry Bones Remix)
15 - Firewall - Sincere (Pulser Rmx)
16 - Alucard Pres. The 49th Line Feat. Jennifer Grimm - Blue On Blue (Octagens Solid Dub)
17 - The Thrillseekers - Synaesthesia 2004 (Ferry Corsten Rmx)
18 - LNG - Intercity (Lange Rmx)
19 - Sarah McLachlan - Fallen (Gabriel and Dresden Anti-Gravity Mix)
20 - Above And Beyond Present Tranquility Base - Surrender
21 - Witness of Wonder - Emotions in Motion (Thrillseekers Rmx
22 - F Massif - Somebody (Ferry Corsten Rmx)
23 - Push - Electric Eclips
24 - Marcos & J.K. Walker - Apache 7 (Marcos Rmx)
25 - Gate 42 - Flow (John O'Callaghan Rmx)
26 - The Mystery - Fever
27 - Dj Tiesto - Adagio For Strings
28 - Matt Darey - Nocturnal Delight (Sandler Rmx)
29 - Mojado Feat Mr Sam - Naranja (Dimitri Andreas Vision)
30 - Randy Katana - In Silence (Txitxarro Rmx)
31 - Floyd - Any Given Day (Floyd Mix)
32 - Ronski Speed - E.O.S (Club Mix)
33 - True Form - Forbidden Colors (Thomas Datt Rmx)
34 - Dj Tatana - Always On My Mind (Ronski Speed Dub)
35 - Adam White And Andy Moor Presents White Room - The White Room
36 - St John Vs Locust - Mind Circles (Original Mix)
37 - Dreas pres. Havannah - Havannah
38 - Robert Nickson - Spiral
39 - M.I.K.E. pres Absolute - New Horizon
40 - Signum - Push Through
41 - Dreas - Sonic Rush
42 - Albert Vorne - A Leaden Day (Mike Rmx)
43 - Jono Grant vs Mike Koglin - Circuits (Original Mix)
44 - Super 8 - Alba
45 - Oceanlab - Satellite (Above & Beyond Rmx)
46 - Active Sight - Out Of Our Lifes
47 - Electrique Boutique - Heal (Instrumental Mix)
48 - Signum - The Timelord ( Original Mix )
49 - M.I.K.E. and Fred Baker present Active Sight - The Search For Freedom
50 - Aces Deilight - Mental Theme (Ultra Trance Rmx)
51 - Nu Nrg - Freefall
52 - Evangelist - Angelica (Astuni & Le Saux Rmx)
53 - Symmetry - Forget (Sonicvibe Rmx)
54 - Solid Globe - Lost Cities (Original Mix)
55 - Rollerball - Albinoni (Super 8 Rmx)
56 - Marcos - Summer Solstice
57 - Vascotia - Calibro (Sonicvibe Rmx)
58 - Phoenixstar - The Example 60 (Ronski Speed Remix)
59 - Fractal Structure - Lost Sequence
60 - Signum - Second Wave (Signum Signal 2004 Remake)
61 - Robert Gitelman - Children Of The Sun
62 - Pulser - My Religion
63 - Pulser - Cloudwalking 2005
64 - Marcos - Just For A Day (Marc Van Linden Rmx)
65 - Mirco De Govia & Ronski Speed - Asarja (Mirco De Govia Mix)
66 - POS - Gravity (Original Mix)
67 - Fred Baker Vs Nyram - Confirmation
68 - Armin vs M.I.K.E. - Pound
69 - Fred Baker Vs The Keyboard Kids - All Of Us
70 - Enmass - Beyond Horizont
71 - Deepvoices - A New Beginning (Astuni & Le Saux Rmx)
72 - Perasma - Swing 2 Harmony (Deserves An Effort Dub Mix)
73 - Inertia - The Chamber
74 - Thomas Bronzwaer - Close Horizon (Original Mix)
75 - John O Callaghan & Kearney - Restricted Motion (Original Mix)
76 - H2J - Santiago (Icone Mix)
77 - Inzite - Spellbound
78 - Sunblind - Believe (Ark In The Sky Dub Rmx)
79 - Jonas Steur - Castamara
80 - Nickelson - Yin (Solid Globe Rmx)





Cue File

Cuuuuuuuuuuuuuuuuue file Laughing Laughing Laughing

TITLE "Maneki Neko 25 Special Edition"
PERFORMER "Manuel Le Saux"
FILE "Manuel le Saux - Maneki Neko (party 107) - 05-Jul-2005.mp3" MP3
TRACK 01 AUDIO
TITLE "Fearless (Push Remix)"
PERFORMER "01 - Rio Klein"
INDEX 01 00:00:00
TRACK 02 AUDIO
TITLE "Go (Antillas Rmx)"
PERFORMER "02 - Andy Hunter"
INDEX 01 06:51:00
TRACK 03 AUDIO
TITLE "A Legends Legacy"
PERFORMER "03 - Factoria"
INDEX 01 10:31:00
TRACK 04 AUDIO
TITLE "Duende (Signum Rmx)"
PERFORMER "04 - Dj Danjo & Rob Styles"
INDEX 01 18:56:00
TRACK 05 AUDIO
TITLE "Connective"
PERFORMER "05 - Nu NRG"
INDEX 01 27:39:00
TRACK 06 AUDIO
TITLE "Illusion (Marcos Rmx)"
PERFORMER "06 - Apogee"
INDEX 01 34:31:00
TRACK 07 AUDIO
TITLE "Seven Floating Ways (Octagen Rmx)"
PERFORMER "07 - Timeok"
INDEX 01 41:29:00
TRACK 08 AUDIO
TITLE "Speak In Sympathy (Neo And Farina Rmx)"
PERFORMER "08 - Solarstone Pres. Elizabeth Fields"
INDEX 01 48:13:00
TRACK 09 AUDIO
TITLE "The Morning After (Thrillseekers Rmx)"
PERFORMER "09 - 8 Wonders"
INDEX 01 55:32:00
TRACK 10 AUDIO
TITLE "Connected (Motomix 05)"
PERFORMER "10 - Paul Van Dyk"
INDEX 01 61:29:00
TRACK 11 AUDIO
TITLE "Lannonce Des Couleurs (The Mystery Rmx)"
PERFORMER "11 - Mac Zimms"
INDEX 01 67:41:00
TRACK 12 AUDIO
TITLE "First Strike (Signum Signal 2004 Remake)"
PERFORMER "12 - Signum"
INDEX 01 75:43:00
TRACK 13 AUDIO
TITLE "Emoticon (Octagen Rmx)"
PERFORMER "13 - Ryan G "
INDEX 01 83:29:00
TRACK 14 AUDIO
TITLE "Wavy Gravy (Terry Bones Remix)"
PERFORMER "14 - Sasha"
INDEX 01 90:13:00
TRACK 15 AUDIO
TITLE "Sincere (Pulser Rmx)"
PERFORMER "15 - Firewall"
INDEX 01 98:27:00
TRACK 16 AUDIO
TITLE "Blue On Blue (Octagens Solid Dub)"
PERFORMER "16 - Alucard Pres. The 49th Line Feat. Jennifer Grimm"
INDEX 01 105:19:00
TRACK 17 AUDIO
TITLE "Synaesthesia 2004 (Ferry Corsten Rmx)"
PERFORMER "17 - The Thrillseekers"
INDEX 01 111:18:00
TRACK 18 AUDIO
TITLE "Intercity (Lange Rmx)"
PERFORMER "18 - LNG"
INDEX 01 118:00:00
TRACK 19 AUDIO
TITLE "Fallen (Gabriel and Dresden Anti-Gravity Mix)"
PERFORMER "19 - Sarah McLachlan"
INDEX 01 127:18:00
TRACK 20 AUDIO
TITLE "Surrender"
PERFORMER "20 - Above And Beyond Present Tranquility Base"
INDEX 01 135:39:00
TRACK 21 AUDIO
TITLE "Emotions in Motion (Thrillseekers Rmx)"
PERFORMER "21 - Witness of Wonder"
INDEX 01 142:03:00
TRACK 22 AUDIO
TITLE "Somebody (Ferry Corsten Rmx)"
PERFORMER "22 - F Massif"
INDEX 01 148:55:00
TRACK 23 AUDIO
TITLE "Electric Eclips"
PERFORMER "23 - Push"
INDEX 01 154:51:00
TRACK 24 AUDIO
TITLE "Apache 7 (Marcos Rmx)"
PERFORMER "24 - Marcos & J.K. Walker"
INDEX 01 161:36:00
TRACK 25 AUDIO
TITLE "Flow (John O'Callaghan Rmx)"
PERFORMER "25 - Gate 42"
INDEX 01 169:01:00
TRACK 26 AUDIO
TITLE "Fever"
PERFORMER "26 - The Mystery"
INDEX 01 176:48:00
TRACK 27 AUDIO
TITLE "Adagio For Strings"
PERFORMER "27 - Dj Tiesto"
INDEX 01 186:56:00
TRACK 28 AUDIO
TITLE "Nocturnal Delight (Sandler Rmx)"
PERFORMER "28 - Matt Darey"
INDEX 01 194:10:00
TRACK 29 AUDIO
TITLE "Naranja (Dimitri Andreas Vision)"
PERFORMER "29 - Mojado Feat Mr Sam"
INDEX 01 202:37:00
TRACK 30 AUDIO
TITLE "In Silence (Txitxarro Rmx)"
PERFORMER "30 - Randy Katana"
INDEX 01 207:40:00
TRACK 31 AUDIO
TITLE "Any Given Day (Floyd Mix)"
PERFORMER "31 - Floyd"
INDEX 01 214:03:00
TRACK 32 AUDIO
TITLE "E.O.S (Club Mix)"
PERFORMER "32 - Ronski Speed"
INDEX 01 222:34:00
TRACK 33 AUDIO
TITLE "Forbidden Colors (Thomas Datt Rmx)"
PERFORMER "33 - True Form"
INDEX 01 231:05:00
TRACK 34 AUDIO
TITLE "Always On My Mind (Ronski Speed Dub)"
PERFORMER "34 - Dj Tatana"
INDEX 01 239:46:00
TRACK 35 AUDIO
TITLE "The White Room"
PERFORMER "35 - Adam White And Andy Moor Presents White Room"
INDEX 01 247:46:00
TRACK 36 AUDIO
TITLE "Mind Circles (Original Mix)"
PERFORMER "36 - St John Vs Locust"
INDEX 01 255:32:00
TRACK 37 AUDIO
TITLE "Havannah"
PERFORMER "37 - Dreas pres. Havannah"
INDEX 01 263:21:00
TRACK 38 AUDIO
TITLE "Spiral"
PERFORMER "38 - Robert Nickson"
INDEX 01 271:34:00
TRACK 39 AUDIO
TITLE "New Horizon"
PERFORMER "39 - M.I.K.E. pres Absolute"
INDEX 01 279:20:00
TRACK 40 AUDIO
TITLE "Push Through"
PERFORMER "40 - Signum"
INDEX 01 285:44:00
TRACK 41 AUDIO
TITLE "Sonic Rush"
PERFORMER "41 - Dreas"
INDEX 01 293:31:00
TRACK 42 AUDIO
TITLE "A Leaden Day (Mike Rmx)"
PERFORMER "42 - Albert Vorne"
INDEX 01 300:49:00
TRACK 43 AUDIO
TITLE "Circuits (Original Mix)"
PERFORMER "43 - Jono Grant vs Mike Koglin"
INDEX 01 307:27:00
TRACK 44 AUDIO
TITLE "Alba"
PERFORMER "44 - Super 8"
INDEX 01 315:42:00
TRACK 45 AUDIO
TITLE "Satellite (Above & Beyond Rmx)"
PERFORMER "45 - Oceanlab"
INDEX 01 322:48:00
TRACK 46 AUDIO
TITLE "Out Of Our Lifes"
PERFORMER "46 - Active Sight"
INDEX 01 329:25:00
TRACK 47 AUDIO
TITLE "Heal (Instrumental Mix)"
PERFORMER "47 - Electrique Boutique"
INDEX 01 336:31:00
TRACK 48 AUDIO
TITLE "The Timelord ( Original Mix )"
PERFORMER "48 - Signum"
INDEX 01 343:36:00
TRACK 49 AUDIO
TITLE "The Search For Freedom"
PERFORMER "49 - M.I.K.E. and Fred Baker present Active Sight"
INDEX 01 353:12:00
TRACK 50 AUDIO
TITLE "Mental Theme (Ultra Trance Rmx)"
PERFORMER "50 - Aces Deilight"
INDEX 01 359:49:00
TRACK 51 AUDIO
TITLE "Freefall"
PERFORMER "51 - Nu Nrg"
INDEX 01 367:45:00
TRACK 52 AUDIO
TITLE "Angelica (Astuni & Le Saux Rmx)"
PERFORMER "52 - Evangelist"
INDEX 01 374:16:00
TRACK 53 AUDIO
TITLE "Forget (Sonicvibe Rmx)"
PERFORMER "53 - Symmetry"
INDEX 01 381:56:00
TRACK 54 AUDIO
TITLE "Lost Cities (Original Mix)"
PERFORMER "54 - Solid Globe"
INDEX 01 389:21:00
TRACK 55 AUDIO
TITLE "Albinoni (Super 8 Rmx)"
PERFORMER "55 - Rollerball"
INDEX 01 396:48:00
TRACK 56 AUDIO
TITLE "Summer Solstice"
PERFORMER "56 - Marcos"
INDEX 01 401:59:00
TRACK 57 AUDIO
TITLE "Calibro (Sonicvibe Rmx)"
PERFORMER "57 - Vascotia"
INDEX 01 408:52:00
TRACK 58 AUDIO
TITLE "The Example 60 (Ronski Speed Remix)"
PERFORMER "58 - Phoenixstar "
INDEX 01 416:52:00
TRACK 59 AUDIO
TITLE "Lost Sequence"
PERFORMER "59 - Fractal Structure"
INDEX 01 423:57:00
TRACK 60 AUDIO
TITLE "Second Wave (Signum Signal 2004 Remake)"
PERFORMER "60 - Signum"
INDEX 01 431:16:00
TRACK 61 AUDIO
TITLE "Children Of The Sun"
PERFORMER "61 - Robert Gitelman"
INDEX 01 439:02:00
TRACK 62 AUDIO
TITLE "My Religion"
PERFORMER "62 - Pulser"
INDEX 01 445:12:00
TRACK 63 AUDIO
TITLE "Cloudwalking 2005"
PERFORMER "63 - Pulser"
INDEX 01 452:17:00
TRACK 64 AUDIO
TITLE "Just For A Day (Marc Van Linden Rmx)"
PERFORMER "64 - Marcos"
INDEX 01 458:35:00
TRACK 65 AUDIO
TITLE "Asarja (Mirco De Govia Mix)"
PERFORMER "65 - Mirco De Govia & Ronski Speed"
INDEX 01 464:51:00
TRACK 66 AUDIO
TITLE "Gravity (Original Mix)"
PERFORMER "66 - POS"
INDEX 01 470:48:00
TRACK 67 AUDIO
TITLE "Confirmation"
PERFORMER "67 - Fred Baker Vs Nyram"
INDEX 01 476:04:00
TRACK 68 AUDIO
TITLE "Pound"
PERFORMER "68 - Armin vs M.I.K.E."
INDEX 01 483:23:00
TRACK 69 AUDIO
TITLE "All Of Us"
PERFORMER "69 - Fred Baker Vs The Keyboard Kids"
INDEX 01 489:20:00
TRACK 70 AUDIO
TITLE "Beyond Horizont"
PERFORMER "70 - Enmass"
INDEX 01 496:13:00
TRACK 71 AUDIO
TITLE "A New Beginning (Astuni & Le Saux Rmx)"
PERFORMER "71 - Deepvoices"
INDEX 01 501:42:00
TRACK 72 AUDIO
TITLE "Swing 2 Harmony (Deserves An Effort Dub Mix)"
PERFORMER "72 - Perasma"
INDEX 01 509:41:00
TRACK 73 AUDIO
TITLE "The Chamber"
PERFORMER "73 - Inertia"
INDEX 01 517:11:00
TRACK 74 AUDIO
TITLE "Close Horizon (Original Mix)"
PERFORMER "74 - Thomas Bronzwaer"
INDEX 01 523:52:00
TRACK 75 AUDIO
TITLE "Restricted Motion (Original Mix)"
PERFORMER "75 - John O Callaghan & Kearney"
INDEX 01 531:25:00
TRACK 76 AUDIO
TITLE "Santiago (Icone Mix)"
PERFORMER "76 - H2J"
INDEX 01 537:56:00
TRACK 77 AUDIO
TITLE "Spellbound"
PERFORMER "77 - Inzite"
INDEX 01 544:47:00
TRACK 78 AUDIO
TITLE "Believe (Ark In The Sky Dub Rmx)"
PERFORMER "78 - Sunblind"
INDEX 01 552:06:00
TRACK 79 AUDIO
TITLE "Castamara"
PERFORMER "79 - Jonas Steur"
INDEX 01 558:54:00
TRACK 80 AUDIO
TITLE "Yin (Solid Globe Rmx)"
PERFORMER "80 - Nickelson"
INDEX 01 564:05:00

4
Maneki Neko / Manuel Le Saux MANEKI NEKO SPECIAL EDITION, 5 July 2005
« on: July 03, 2005, 06:17:08 pm »
Since the requests became very much lately... Manny decided to do a BIG Maneki b4 the summer vacation ....

the show will be a 9 1/5 HOURS SHOW and it will be broadcasted TUESDAY 5 JULY on PARTY107

TIME :
4 PM (GMT+1)
3 PM (GMT)
10 AM (EST) America



5
Moody Melodies / Moody Melodies 019 SPECIAL REPORT!!!
« on: June 22, 2005, 01:25:53 am »
Could you please explain to me why the TA thread was closed?

http://www.tranceaddict.com/forums/showthread.php?s=&threadid=252834&perpage=12&pagenumber=1

6
Moody Melodies / Andrew Parsons - Moody Melodies 029 05-30-05
« on: June 22, 2005, 01:14:40 am »
Quote from: elletek


01. Kenny Hayes - Ibiza Sky (Alex M.O.R.P.H. Remix) [CDR]


Amazing tracklist, especially this one mr parsons.  headbang:

7
Moody Melodies / Andrew Parsons - Moody Melodies 029 05-30-05
« on: June 22, 2005, 01:13:19 am »
Andrew Parsons - Moody Melodies 029 05-30-05


01. Kenny Hayes - Ibiza Sky (Alex M.O.R.P.H. Remix) [CDR]
02. Thomas Bronzwaer - Close Horizon (Original Mix) [YAKUZA]
03. ID - ID [INSPIRED]
04. The Elemental - A World Of Fire [REAL MUSIC]
05. Inertia - The Chamber [DISCOVER]
06. ID - ID
07. Christain Zechner - Stella Winds (M.I.D.O.R. & Six4eight Remix)
08. Gareth Emery & Kirch - Lose Yourself (Will Holland Remix) [ENHANCED]
09. ML - Leave These Shores [REAL MUSIC]

8
Also playlisted by dj Koris

9
Quote from: DJ_Mark
Looks cool :headbang:

yeah it does, wish I could go this weekend  :(

11
Artist: Baltes & Dyloot pres DeepVoices
Label: Noizest - DMW  
Released: 26th May, 2005
Genre: Vocal/Euphoric Trance

A New Beginning (Original mix)
 
A New Beginning (Astuni and Le Saux Planar Void Rmx) [Noizest DMW]
 
You may listen to a sample  HERE

12
Special Events / Angel Ace / Serenade / Virtua on Party107 (04-10-05)
« on: April 25, 2005, 01:50:37 am »
Was a very nice set.  Will he be doing more shows here?

14




15
Maneki Neko / Manuel Le Saux @ Cyborg Disco - Italy
« on: February 17, 2005, 06:53:15 pm »
Manuel Le Saux will be appearing at Cyborg Disco, Attigliano (Italy) Every Saturdary Night beginning 19 Feb 2005.

The Club Has a huge capacity for 8000 people, this is gonna be a massive event!  Cyborg Disco

Manuel Le Saux Home Page



Pages: [1] 2 3